<?xml version="1.0" standalone="no"?>
<!DOCTYPE svg PUBLIC "-//W3C//DTD SVG 1.1//EN" "http://www.w3.org/Graphics/SVG/1.1/DTD/svg11.dtd" >
<svg>
<metadata>
Created by FontForge 20110222 at Mon Mar  7 03:48:49 2011
 By www-data
NIGMA FONTS   [e-mail]  kentpw@norwich.net
</metadata>
<defs>
<font id="EditUndoBRK" horiz-adv-x="504" >
  <font-face 
    font-family="Edit Undo BRK"
    font-weight="400"
    font-stretch="normal"
    units-per-em="1000"
    panose-1="0 0 0 0 0 0 0 0 0 0"
    ascent="800"
    descent="-200"
    x-height="576"
    cap-height="576"
    bbox="-72 -144 720 720"
    underline-thickness="50"
    underline-position="-75"
    unicode-range="U+0020-2122"
  />
    <missing-glyph />
    <glyph glyph-name="space" unicode=" " 
 />
    <glyph glyph-name="exclam" unicode="!" horiz-adv-x="216" 
d="M0 216h144v360h-144v-360zM0 0h144v144h-144v-144z" />
    <glyph glyph-name="quotedbl" unicode="&#x22;" horiz-adv-x="432" 
d="M0 432h144v144h-144v-144zM216 432h144v144h-144v-144z" />
    <glyph glyph-name="numbersign" unicode="#" horiz-adv-x="576" 
d="M288 0h144v72h72v144h-72v144h72v144h-72v72h-144v-72h-72v72h-144v-72h-72v-144h72v-144h-72v-144h72v-72h144v72h72v-72zM216 360h72v-144h-72v144z" />
    <glyph glyph-name="dollar" unicode="$" 
d="M144 -72h144v72h72v72h72v216h-72v72h-216v72h288v144h-144v72h-144v-72h-72v-72h-72v-216h72v-72h216v-72h-288v-144h144v-72z" />
    <glyph glyph-name="percent" unicode="%" horiz-adv-x="648" 
d="M360 0h216v216h-216v72h72v72h72v72h72v144h-144v-72h-72v-72h-72v-72h-72v216h-216v-216h216v-72h-72v-72h-72v-72h-72v-144h144v72h72v72h72v72h72v-216zM432 144h72v-72h-72v72zM72 504h72v-72h-72v72z" />
    <glyph glyph-name="ampersand" unicode="&#x26;" 
d="M72 0h72v-72h144v72h144v144h-288v72h144v144h-144v72h288v144h-144v72h-144v-72h-72v-72h-72v-432h72v-72z" />
    <glyph glyph-name="quotesingle" unicode="'" horiz-adv-x="216" 
d="M0 432h144v144h-144v-144z" />
    <glyph glyph-name="parenleft" unicode="(" horiz-adv-x="288" 
d="M0 72h72v-72h144v144h-72v288h72v144h-144v-72h-72v-432z" />
    <glyph glyph-name="parenright" unicode=")" horiz-adv-x="288" 
d="M0 432h72v-288h-72v-144h144v72h72v432h-72v72h-144v-144z" />
    <glyph glyph-name="asterisk" unicode="*" 
d="M0 360h72v-72h-72v-144h144v72h144v-72h144v144h-72v72h72v144h-144v72h-144v-72h-144v-144z" />
    <glyph glyph-name="plus" unicode="+" 
d="M0 216h144v-144h144v144h144v144h-144v144h-144v-144h-144v-144z" />
    <glyph glyph-name="comma" unicode="," horiz-adv-x="216" 
d="M0 -72h144v216h-144v-216z" />
    <glyph glyph-name="minus" unicode="-" 
d="M0 216h432v144h-432v-144z" />
    <glyph glyph-name="period" unicode="." horiz-adv-x="216" 
d="M0 0h144v144h-144v-144z" />
    <glyph glyph-name="slash" unicode="/" horiz-adv-x="648" 
d="M0 0h144v72h72v72h72v72h72v72h72v72h72v72h72v144h-144v-72h-72v-72h-72v-72h-72v-72h-72v-72h-72v-72h-72v-144z" />
    <glyph glyph-name="zero" unicode="0" 
d="M0 72h72v-72h288v72h72v432h-72v72h-288v-72h-72v-432zM144 432h144v-288h-144v288z" />
    <glyph glyph-name="one" unicode="1" horiz-adv-x="216" 
d="M0 0h144v576h-144v-576z" />
    <glyph glyph-name="two" unicode="2" 
d="M0 432h288v-72h-216v-72h-72v-288h432v144h-288v72h216v72h72v216h-72v72h-360v-144z" />
    <glyph glyph-name="three" unicode="3" 
d="M0 432h288v-72h-144v-144h144v-72h-288v-144h360v72h72v432h-72v72h-360v-144z" />
    <glyph glyph-name="four" unicode="4" 
d="M0 288h72v-72h216v-216h144v576h-144v-216h-144v216h-144v-288z" />
    <glyph glyph-name="five" unicode="5" 
d="M0 576v-288h72v-72h216v-72h-288v-144h360v72h72v216h-72v72h-216v72h288v144h-432z" />
    <glyph glyph-name="six" unicode="6" 
d="M0 72h72v-72h288v72h72v216h-72v72h-216v72h288v144h-360v-72h-72v-432zM144 216h144v-72h-144v72z" />
    <glyph glyph-name="seven" unicode="7" 
d="M0 432h288v-432h144v504h-72v72h-360v-144z" />
    <glyph glyph-name="eight" unicode="8" 
d="M0 72h72v-72h288v72h72v432h-72v72h-288v-72h-72v-432zM144 216h144v-72h-144v72zM144 432h144v-72h-144v72z" />
    <glyph glyph-name="nine" unicode="9" 
d="M0 288h72v-72h216v-216h144v504h-72v72h-288v-72h-72v-216zM144 432h144v-72h-144v72z" />
    <glyph glyph-name="colon" unicode=":" horiz-adv-x="216" 
d="M0 432h144v144h-144v-144zM0 0h144v144h-144v-144z" />
    <glyph glyph-name="semicolon" unicode=";" horiz-adv-x="216" 
d="M0 -72h144v216h-144v-216zM0 432h144v144h-144v-144z" />
    <glyph glyph-name="less" unicode="&#x3c;" horiz-adv-x="432" 
d="M72 360h-72v-144h72v-72h72v-72h72v-72h144v144h-72v72h-72v144h72v72h72v144h-144v-72h-72v-72h-72v-72z" />
    <glyph glyph-name="equal" unicode="=" 
d="M0 360h432v144h-432v-144zM0 72h432v144h-432v-144z" />
    <glyph glyph-name="greater" unicode="&#x3e;" horiz-adv-x="432" 
d="M0 432h72v-72h72v-144h-72v-72h-72v-144h144v72h72v72h72v72h72v144h-72v72h-72v72h-72v72h-144v-144z" />
    <glyph glyph-name="question" unicode="?" 
d="M0 432h288v-72h-144v-144h216v72h72v216h-72v72h-360v-144zM144 0h144v144h-144v-144z" />
    <glyph glyph-name="at" unicode="@" horiz-adv-x="648" 
d="M216 72h72v-72h216v72h72v432h-72v72h-432v-72h-72v-504h144v432h288v-72h-144v-72h-72v-216zM360 216h72v-72h-72v72z" />
    <glyph glyph-name="A" unicode="A" 
d="M144 216h144v-216h144v504h-72v72h-288v-72h-72v-504h144v216zM144 360v72h144v-72h-144z" />
    <glyph glyph-name="B" unicode="B" 
d="M360 72h72v144h-72v144h72v144h-72v72h-360v-576h360v72zM144 216h144v-72h-144v72zM144 432h144v-72h-144v72z" />
    <glyph glyph-name="C" unicode="C" 
d="M0 72h72v-72h360v144h-288v288h288v144h-360v-72h-72v-432z" />
    <glyph glyph-name="D" unicode="D" 
d="M288 72h72v72h72v288h-72v72h-72v72h-288v-576h288v72zM216 360h72v-144h-72v-72h-72v288h72v-72z" />
    <glyph glyph-name="E" unicode="E" 
d="M72 0h360v144h-288v72h144v144h-144v72h288v144h-360v-72h-72v-432h72v-72z" />
    <glyph glyph-name="F" unicode="F" 
d="M144 216h144v144h-144v72h288v144h-360v-72h-72v-504h144v216z" />
    <glyph glyph-name="G" unicode="G" 
d="M72 0h360v360h-216v-144h72v-72h-144v288h288v144h-360v-72h-72v-432h72v-72z" />
    <glyph glyph-name="H" unicode="H" 
d="M144 216h144v-216h144v576h-144v-216h-144v216h-144v-576h144v216z" />
    <glyph glyph-name="I" unicode="I" 
d="M0 432h144v-288h-144v-144h432v144h-144v288h144v144h-432v-144z" />
    <glyph glyph-name="J" unicode="J" 
d="M0 72h72v-72h288v72h72v504h-144v-432h-144v72h-144v-144z" />
    <glyph glyph-name="K" unicode="K" 
d="M144 144h72v-72h72v-72h144v144h-72v72h-72v144h72v72h72v144h-144v-72h-72v-72h-72v144h-144v-576h144v144z" />
    <glyph glyph-name="L" unicode="L" 
d="M72 0h360v144h-288v432h-144v-504h72v-72z" />
    <glyph glyph-name="M" unicode="M" horiz-adv-x="576" 
d="M144 288h72v-72h72v72h72v-288h144v576h-144v-72h-72v-72h-72v72h-72v72h-144v-576h144v288z" />
    <glyph glyph-name="N" unicode="N" 
d="M216 216h72v-216h144v576h-144v-144h-72v72h-72v72h-144v-576h144v288h72v-72z" />
    <glyph glyph-name="O" unicode="O" 
d="M0 72h72v-72h288v72h72v432h-72v72h-288v-72h-72v-432zM144 432h144v-288h-144v288z" />
    <glyph glyph-name="P" unicode="P" 
d="M144 216h216v72h72v216h-72v72h-360v-576h144v216zM144 432h144v-72h-144v72z" />
    <glyph glyph-name="Q" unicode="Q" 
d="M0 72h72v-72h360v504h-72v72h-288v-72h-72v-432zM144 432h144v-216h-72v-72h-72v288z" />
    <glyph glyph-name="R" unicode="R" 
d="M216 144h72v-144h144v216h-72v72h72v216h-72v72h-360v-576h144v216h72v-72zM144 432h144v-72h-144v72z" />
    <glyph glyph-name="S" unicode="S" 
d="M0 288h72v-72h216v-72h-288v-144h360v72h72v216h-72v72h-216v72h288v144h-360v-72h-72v-216z" />
    <glyph glyph-name="T" unicode="T" 
d="M0 432h144v-432h144v432h144v144h-432v-144z" />
    <glyph glyph-name="U" unicode="U" 
d="M0 72h72v-72h288v72h72v504h-144v-432h-144v432h-144v-504z" />
    <glyph glyph-name="V" unicode="V" 
d="M0 144h72v-72h72v-72h144v72h72v72h72v432h-144v-360h-144v360h-144v-432z" />
    <glyph glyph-name="W" unicode="W" horiz-adv-x="576" 
d="M144 72h72v72h72v-72h72v-72h144v576h-144v-288h-72v72h-72v-72h-72v288h-144v-576h144v72z" />
    <glyph glyph-name="X" unicode="X" 
d="M0 360h72v-144h-72v-216h144v144h144v-144h144v216h-72v144h72v216h-144v-144h-144v144h-144v-216z" />
    <glyph glyph-name="Y" unicode="Y" 
d="M0 288h72v-72h72v-216h144v216h72v72h72v288h-144v-216h-144v216h-144v-288z" />
    <glyph glyph-name="Z" unicode="Z" 
d="M0 432h216v-72h-72v-72h-72v-72h-72v-216h432v144h-216v72h72v72h72v72h72v216h-432v-144z" />
    <glyph glyph-name="bracketleft" unicode="[" horiz-adv-x="288" 
d="M144 432h72v144h-216v-576h216v144h-72v288z" />
    <glyph glyph-name="backslash" unicode="\" horiz-adv-x="648" 
d="M0 432h72v-72h72v-72h72v-72h72v-72h72v-72h72v-72h144v144h-72v72h-72v72h-72v72h-72v72h-72v72h-72v72h-144v-144z" />
    <glyph glyph-name="bracketright" unicode="]" horiz-adv-x="288" 
d="M0 432h72v-288h-72v-144h216v576h-216v-144z" />
    <glyph glyph-name="asciicircum" unicode="^" 
d="M288 288h144v144h-72v72h-72v72h-144v-72h-72v-72h-72v-144h144v72h144v-72z" />
    <glyph glyph-name="underscore" unicode="_" 
d="M0 -72h432v144h-432v-144z" />
    <glyph glyph-name="grave" unicode="`" horiz-adv-x="216" 
d="M0 432h144v144h-144v-144z" />
    <glyph glyph-name="a" unicode="a" 
d="M144 216h144v-216h144v504h-72v72h-288v-72h-72v-504h144v216zM144 360v72h144v-72h-144z" />
    <glyph glyph-name="b" unicode="b" 
d="M0 0h360v72h72v432h-72v72h-360v-576zM144 432h144v-72h-144v72zM144 216h144v-72h-144v72z" />
    <glyph glyph-name="c" unicode="c" 
d="M72 0h288v72h72v144h-144v-72h-144v288h144v-72h144v144h-72v72h-288v-72h-72v-432h72v-72z" />
    <glyph glyph-name="d" unicode="d" 
d="M0 0h360v72h72v432h-72v72h-360v-576zM144 432h144v-288h-144v288z" />
    <glyph glyph-name="e" unicode="e" 
d="M72 0h360v144h-288v72h144v144h-144v72h288v144h-360v-72h-72v-432h72v-72z" />
    <glyph glyph-name="f" unicode="f" 
d="M144 216h144v144h-144v72h288v144h-360v-72h-72v-504h144v216z" />
    <glyph glyph-name="g" unicode="g" 
d="M0 72h72v-72h288v72h72v288h-216v-144h72v-72h-144v288h288v144h-360v-72h-72v-432z" />
    <glyph glyph-name="h" unicode="h" 
d="M144 216h144v-216h144v576h-144v-216h-144v216h-144v-576h144v216z" />
    <glyph glyph-name="i" unicode="i" horiz-adv-x="216" 
d="M0 0h144v576h-144v-576z" />
    <glyph glyph-name="j" unicode="j" 
d="M0 72h72v-72h288v72h72v504h-144v-432h-144v72h-144v-144z" />
    <glyph glyph-name="k" unicode="k" 
d="M144 144h72v-72h72v-72h144v144h-72v72h-72v144h72v72h72v144h-144v-72h-72v-72h-72v144h-144v-576h144v144z" />
    <glyph glyph-name="l" unicode="l" 
d="M72 0h360v144h-288v432h-144v-504h72v-72z" />
    <glyph glyph-name="m" unicode="m" horiz-adv-x="648" 
d="M216 0h144v432h72v-432h144v504h-72v72h-432v-72h-72v-504h144v432h72v-432z" />
    <glyph glyph-name="n" unicode="n" 
d="M288 0h144v504h-72v72h-288v-72h-72v-504h144v432h144v-432z" />
    <glyph glyph-name="o" unicode="o" 
d="M0 72h72v-72h288v72h72v432h-72v72h-288v-72h-72v-432zM144 432h144v-288h-144v288z" />
    <glyph glyph-name="p" unicode="p" 
d="M0 0h144v216h216v72h72v216h-72v72h-288v-72h-72v-504zM144 432h144v-72h-144v72z" />
    <glyph glyph-name="q" unicode="q" 
d="M144 -72h144v72h72v72h72v432h-72v72h-288v-72h-72v-432h72v-72h72v-72zM144 432h144v-288h-144v288z" />
    <glyph glyph-name="r" unicode="r" 
d="M216 144h72v-144h144v216h-72v72h72v216h-72v72h-288v-72h-72v-504h144v216h72v-72zM144 432h144v-72h-144v72z" />
    <glyph glyph-name="s" unicode="s" 
d="M0 288h72v-72h216v-72h-288v-144h360v72h72v216h-72v72h-216v72h288v144h-360v-72h-72v-216z" />
    <glyph glyph-name="t" unicode="t" 
d="M0 432h144v-432h144v432h144v144h-432v-144z" />
    <glyph glyph-name="u" unicode="u" 
d="M0 72h72v-72h288v72h72v504h-144v-432h-144v432h-144v-504z" />
    <glyph glyph-name="v" unicode="v" 
d="M216 72h72v72h72v72h72v360h-144v-288h-72v-72h-72v360h-144v-576h216v72z" />
    <glyph glyph-name="w" unicode="w" horiz-adv-x="648" 
d="M0 72h72v-72h432v72h72v504h-144v-432h-72v432h-144v-432h-72v432h-144v-504z" />
    <glyph glyph-name="x" unicode="x" 
d="M0 360h72v-144h-72v-216h144v144h144v-144h144v216h-72v144h72v216h-144v-144h-144v144h-144v-216z" />
    <glyph glyph-name="y" unicode="y" 
d="M0 288h72v-72h72v-216h144v216h72v72h72v288h-144v-216h-144v216h-144v-288z" />
    <glyph glyph-name="z" unicode="z" 
d="M0 432h216v-72h-72v-72h-72v-72h-72v-216h432v144h-216v72h72v72h72v72h72v216h-432v-144z" />
    <glyph glyph-name="braceleft" unicode="{" horiz-adv-x="360" 
d="M0 216h72v-144h72v-72h144v144h-72v288h72v144h-144v-72h-72v-144h-72v-144z" />
    <glyph glyph-name="bar" unicode="|" horiz-adv-x="216" 
d="M0 -72h144v720h-144v-720z" />
    <glyph glyph-name="braceright" unicode="}" horiz-adv-x="360" 
d="M0 432h72v-288h-72v-144h144v72h72v144h72v144h-72v144h-72v72h-144v-144z" />
    <glyph glyph-name="asciitilde" unicode="~" horiz-adv-x="576" 
d="M216 144h216v72h72v144h-144v-72h-72v144h-216v-72h-72v-144h144v72h72v-144z" />
    <glyph glyph-name=".0127" 
d="M0 0h432v576h-432v-576z" />
    <glyph glyph-name="quotesinglbase" unicode="&#x201a;" horiz-adv-x="216" 
d="M0 -72h144v216h-144v-216z" />
    <glyph glyph-name="florin" unicode="&#x192;" 
d="M0 216h72v-72h-72v-144h144v72h72v144h72v144h-72v72h216v144h-288v-72h-72v-144h-72v-144z" />
    <glyph glyph-name="quotedblbase" unicode="&#x201e;" horiz-adv-x="432" 
d="M0 -72h144v216h-144v-216zM216 -72h144v216h-144v-216z" />
    <glyph glyph-name="ellipsis" unicode="&#x2026;" horiz-adv-x="648" 
d="M0 0h144v144h-144v-144zM432 0h144v144h-144v-144zM216 0h144v144h-144v-144z" />
    <glyph glyph-name="dagger" unicode="&#x2020;" 
d="M0 360h144v-360h144v360h144v144h-144v72h-144v-72h-144v-144z" />
    <glyph glyph-name="daggerdbl" unicode="&#x2021;" 
d="M0 72h144v-72h144v72h144v144h-144v144h144v144h-144v72h-144v-72h-144v-144h144v-144h-144v-144z" />
    <glyph glyph-name="circumflex" unicode="&#x2c6;" horiz-adv-x="360" 
d="M216 576h72v72h-72v72h-144v-72h144v-72zM0 576h72v72h-72v-72z" />
    <glyph glyph-name="perthousand" unicode="&#x2030;" horiz-adv-x="792" 
d="M360 0h360v216h-360v72h72v72h72v72h72v144h-144v-72h-72v-72h-72v-72h-72v216h-216v-216h216v-72h-72v-72h-72v-72h-72v-144h144v72h72v72h72v72h72v-216zM576 144h72v-72h-72v72zM72 504h72v-72h-72v72zM432 144h72v-72h-72v72z" />
    <glyph glyph-name="Scaron" unicode="&#x160;" 
d="M72 648h72v-72h-72v-72h-72v-216h72v-72h216v-72h-288v-144h360v72h72v216h-72v72h-216v72h288v144h-144v72h-144v72h-72v-72zM288 648h72v72h-72v-72z" />
    <glyph glyph-name="guilsinglleft" unicode="&#x2039;" horiz-adv-x="360" 
d="M72 360h-72v-144h72v-72h72v-72h144v144h-72v144h72v144h-144v-72h-72v-72z" />
    <glyph glyph-name="OE" unicode="&#x152;" horiz-adv-x="792" 
d="M0 72h72v-72h648v144h-288v72h144v144h-144v72h288v144h-648v-72h-72v-432zM144 432h144v-288h-144v288z" />
    <glyph glyph-name="quoteleft" unicode="&#x2018;" horiz-adv-x="216" 
d="M0 432h144v144h-72v72h-72v-216z" />
    <glyph glyph-name="quoteright" unicode="&#x2019;" horiz-adv-x="216" 
d="M0 432h72v-72h72v216h-144v-144z" />
    <glyph glyph-name="quotedblleft" unicode="&#x201c;" horiz-adv-x="432" 
d="M0 432h144v144h-72v72h-72v-216zM216 648v-216h144v144h-72v72h-72z" />
    <glyph glyph-name="quotedblright" unicode="&#x201d;" horiz-adv-x="432" 
d="M0 432h72v-72h72v216h-144v-144zM216 432h72v-72h72v216h-144v-144z" />
    <glyph glyph-name="bullet" unicode="&#x2022;" horiz-adv-x="360" 
d="M0 216h72v-72h144v72h72v144h-72v72h-144v-72h-72v-144z" />
    <glyph glyph-name="endash" unicode="&#x2013;" horiz-adv-x="360" 
d="M0 216h288v144h-288v-144z" />
    <glyph glyph-name="emdash" unicode="&#x2014;" horiz-adv-x="648" 
d="M0 216h576v144h-576v-144z" />
    <glyph glyph-name="tilde" unicode="&#x2dc;" horiz-adv-x="360" 
d="M72 648h72v-72h144v144h-72v-72h-72v72h-144v-144h72v72z" />
    <glyph glyph-name="trademark" unicode="&#x2122;" horiz-adv-x="648" 
d="M216 0h144v144h72v-144h144v216h-72v72h-144v144h144v144h-432v-144h144v-144h-144v-72h-72v-216h144v144h72v-144z" />
    <glyph glyph-name="scaron" unicode="&#x161;" 
d="M72 648h72v-72h-72v-72h-72v-216h72v-72h216v-72h-288v-144h360v72h72v216h-72v72h-216v72h288v144h-144v72h-144v72h-72v-72zM288 648h72v72h-72v-72z" />
    <glyph glyph-name="guilsinglright" unicode="&#x203a;" horiz-adv-x="360" 
d="M144 144h72v72h72v144h-72v72h-72v72h-144v-144h72v-144h-72v-144h144v72z" />
    <glyph glyph-name="oe" unicode="&#x153;" horiz-adv-x="792" 
d="M0 72h72v-72h648v144h-288v72h144v144h-144v72h288v144h-648v-72h-72v-432zM144 432h144v-288h-144v288z" />
    <glyph glyph-name="Ydieresis" unicode="&#x178;" 
d="M0 288h72v-72h72v-216h144v216h72v72h72v288h-144v-216h-144v216h-144v-288zM288 648h72v72h-72v-72zM72 648h72v72h-72v-72z" />
    <glyph glyph-name=".0160" unicode="&#xa0;" 
 />
    <glyph glyph-name="exclamdown" unicode="&#xa1;" horiz-adv-x="216" 
d="M0 0h144v360h-144v-360zM0 432h144v144h-144v-144z" />
    <glyph glyph-name="cent" unicode="&#xa2;" 
d="M72 0h72v-144h144v144h72v72h72v144h-144v-72h-144v288h144v-72h144v144h-72v72h-72v144h-144v-144h-72v-72h-72v-432h72v-72z" />
    <glyph glyph-name="sterling" unicode="&#xa3;" horiz-adv-x="576" 
d="M360 360h144v144h-72v72h-288v-72h-72v-144h-72v-144h72v-72h-72v-144h432v72h72v144h-144v-72h-144v72h72v144h-72v72h144v-72z" />
    <glyph glyph-name="currency" unicode="&#xa4;" horiz-adv-x="648" 
d="M72 144h72v-72h288v-72h144v144h-72v288h-72v72h-288v72h-144v-144h72v-288zM216 360h144v-144h-144v144zM432 504h72v-72h72v144h-144v-72zM0 0h144v72h-72v72h-72v-144zM72 504h72v-72h-72v72zM504 144v-72h-72v72h72z" />
    <glyph glyph-name="yen" unicode="&#xa5;" 
d="M0 144h144v-72h-144v-72h432v72h-144v72h144v72h-72v72h72v288h-144v-216h-144v216h-144v-288h72v-72h-72v-72z" />
    <glyph glyph-name="brokenbar" unicode="&#xa6;" horiz-adv-x="216" 
d="M0 360h144v288h-144v-288zM0 -72h144v288h-144v-288z" />
    <glyph glyph-name="section" unicode="&#xa7;" 
d="M0 216h72v-72h216v-72h-288v-144h360v72h72v432h-72v72h-216v72h288v144h-360v-72h-72v-432zM144 360h144v-72h-144v72z" />
    <glyph glyph-name="dieresis" unicode="&#xa8;" horiz-adv-x="360" 
d="M0 648h72v72h-72v-72zM216 648h72v72h-72v-72z" />
    <glyph glyph-name="copyright" unicode="&#xa9;" horiz-adv-x="720" 
d="M0 0h72v-72h504v72h72v576h-72v72h-504v-72h-72v-576zM144 504h360v-432h-360v432zM288 144h144v72h-144v144h-72v-144h72v-72zM288 360h144v72h-144v-72z" />
    <glyph glyph-name="ordfeminine" unicode="&#xaa;" 
d="M144 576h144v-72h-216v-72h-72v-216h72v-72h360v504h-72v72h-216v-144zM288 288h-144v72h144v-72z" />
    <glyph glyph-name="guillemotleft" unicode="&#xab;" horiz-adv-x="648" 
d="M360 360h-72v144h-144v-72h-72v-72h-72v-144h72v-72h72v-72h144v144h-72v144h72v-144h72v-72h72v-72h144v144h-72v144h72v144h-144v-72h-72v-72z" />
    <glyph glyph-name="logicalnot" unicode="&#xac;" 
d="M0 216h288v-144h144v288h-432v-144z" />
    <glyph glyph-name="hyphen" unicode="&#xad;" horiz-adv-x="360" 
d="M0 216h288v144h-288v-144z" />
    <glyph glyph-name="registered" unicode="&#xae;" horiz-adv-x="720" 
d="M0 0h72v-72h504v72h72v576h-72v72h-504v-72h-72v-576zM144 504h360v-432h-360v432zM288 216h72v-72h72v72h-72v72h-72v72h72v-72h72v144h-216v-288h72v72z" />
    <glyph glyph-name="macron" unicode="&#xaf;" 
d="M0 576h432v144h-432v-144z" />
    <glyph glyph-name="degree" unicode="&#xb0;" horiz-adv-x="288" 
d="M0 504h216v216h-216v-216zM72 648h72v-72h-72v72z" />
    <glyph glyph-name="plusminus" unicode="&#xb1;" 
d="M0 288h144v-144h-144v-144h432v144h-144v144h144v144h-144v144h-144v-144h-144v-144z" />
    <glyph glyph-name="twosuperior" unicode="&#xb2;" horiz-adv-x="288" 
d="M0 648h144v-72h-144v-216h216v72h-144v72h144v216h-216v-72z" />
    <glyph glyph-name="threesuperior" unicode="&#xb3;" horiz-adv-x="288" 
d="M0 648h144v-72h-72v-72h72v-72h-144v-72h216v360h-216v-72z" />
    <glyph glyph-name="acute" unicode="&#xb4;" horiz-adv-x="216" 
d="M0 576h72v72h-72v-72zM72 648h72v72h-72v-72z" />
    <glyph glyph-name="mu" unicode="&#xb5;" 
d="M0 -144h144v144h216v72h72v504h-144v-432h-144v432h-144v-720z" />
    <glyph glyph-name="paragraph" unicode="&#xb6;" horiz-adv-x="648" 
d="M0 288h72v-72h72v-216h144v432h72v-432h144v432h72v144h-504v-72h-72v-216z" />
    <glyph glyph-name="periodcentered" unicode="&#xb7;" horiz-adv-x="216" 
d="M0 216h144v144h-144v-144z" />
    <glyph glyph-name="periodcentered" unicode="&#x2219;" horiz-adv-x="216" 
d="M0 216h144v144h-144v-144z" />
    <glyph glyph-name="cedilla" unicode="&#xb8;" horiz-adv-x="216" 
d="M0 -144h144v144h-72v-72h-72v-72z" />
    <glyph glyph-name="onesuperior" unicode="&#xb9;" horiz-adv-x="144" 
d="M0 360h72v360h-72v-360z" />
    <glyph glyph-name="ordmasculine" unicode="&#xba;" horiz-adv-x="288" 
d="M0 360h216v360h-216v-360zM72 648h72v-216h-72v216z" />
    <glyph glyph-name="guillemotright" unicode="&#xbb;" horiz-adv-x="648" 
d="M432 144h72v72h72v144h-72v72h-72v72h-144v-144h72v-144h-72v144h-72v72h-72v72h-144v-144h72v-144h-72v-144h144v72h72v72h72v-144h144v72z" />
    <glyph glyph-name="onequarter" unicode="&#xbc;" horiz-adv-x="648" 
d="M360 72h144v-144h72v360h-72v-144h-72v216h72v72h72v144h-144v-72h-72v-72h-72v-72h-72v-72h-72v360h-72v-360h72v-72h-72v-72h-72v-144h144v72h72v72h72v72h72v-144z" />
    <glyph glyph-name="onehalf" unicode="&#xbd;" horiz-adv-x="648" 
d="M288 216h216v-72h-144v-216h216v72h-144v72h144v216h-144v72h72v72h72v144h-144v-72h-72v-72h-72v-72h-72v-72h-72v360h-72v-360h72v-72h-72v-72h-72v-144h144v72h72v72h72v72z" />
    <glyph glyph-name="threequarters" unicode="&#xbe;" horiz-adv-x="648" 
d="M360 72h144v-144h72v360h-72v-144h-72v216h72v72h72v144h-144v-72h-72v-72h-72v-72h-72v288h-216v-72h144v-72h-72v-72h72v-72h-144v-72h144v-72h-72v-72h-72v-144h144v72h72v72h72v72h72v-144z" />
    <glyph glyph-name="questiondown" unicode="&#xbf;" 
d="M0 72h72v-72h360v144h-288v72h144v144h-216v-72h-72v-216zM144 432h144v144h-144v-144z" />
    <glyph glyph-name="Agrave" unicode="&#xc0;" 
d="M216 576h-144v-72h-72v-504h144v216h144v-216h144v504h-72v72h-72v72h-72v72h-72v-72h72v-72zM144 360v72h144v-72h-144z" />
    <glyph glyph-name="Aacute" unicode="&#xc1;" 
d="M144 216h144v-216h144v504h-72v72h-144v72h-72v-72h-72v-72h-72v-504h144v216zM144 360v72h144v-72h-144zM216 648h72v72h-72v-72z" />
    <glyph glyph-name="Acircumflex" unicode="&#xc2;" 
d="M288 576h-144v72h-72v-144h-72v-504h144v216h144v-216h144v504h-72v144h-72v72h-144v-72h144v-72zM144 360v72h144v-72h-144z" />
    <glyph glyph-name="Atilde" unicode="&#xc3;" 
d="M144 216h144v-216h144v504h-72v216h-72v-72h-72v72h-144v-216h-72v-504h144v216zM144 360v72h144v-72h-144zM144 648h72v-72h-72v72z" />
    <glyph glyph-name="Adieresis" unicode="&#xc4;" 
d="M144 216h144v-216h144v504h-72v72h-288v-72h-72v-504h144v216zM144 360v72h144v-72h-144zM72 648h72v72h-72v-72zM288 648h72v72h-72v-72z" />
    <glyph glyph-name="Aring" unicode="&#xc5;" 
d="M72 720v-216h-72v-504h144v216h144v-216h144v504h-72v216h-288zM144 360v72h144v-72h-144zM288 576h-144v72h144v-72z" />
    <glyph glyph-name="AE" unicode="&#xc6;" horiz-adv-x="792" 
d="M288 72h72v-72h360v144h-288v72h144v144h-144v72h288v144h-648v-72h-72v-504h144v216h144v-144zM144 432h144v-72h-144v72z" />
    <glyph glyph-name="Ccedilla" unicode="&#xc7;" 
d="M144 -144h144v144h144v144h-288v288h288v144h-360v-72h-72v-432h72v-72h144v-72h-72v-72z" />
    <glyph glyph-name="Egrave" unicode="&#xc8;" 
d="M72 0h360v144h-288v72h144v144h-144v72h288v144h-144v72h-72v72h-72v-72h72v-72h-144v-72h-72v-432h72v-72z" />
    <glyph glyph-name="Eacute" unicode="&#xc9;" 
d="M72 0h360v144h-288v72h144v144h-144v72h288v144h-216v72h-72v-72h-72v-72h-72v-432h72v-72zM216 648h72v72h-72v-72z" />
    <glyph glyph-name="Ecircumflex" unicode="&#xca;" 
d="M288 576h-144v72h-72v-144h-72v-432h72v-72h360v144h-288v72h144v144h-144v72h288v144h-72v72h-72v72h-144v-72h144v-72z" />
    <glyph glyph-name="Edieresis" unicode="&#xcb;" 
d="M72 0h360v144h-288v72h144v144h-144v72h288v144h-360v-72h-72v-432h72v-72zM288 648h72v72h-72v-72zM72 648h72v72h-72v-72z" />
    <glyph glyph-name="Igrave" unicode="&#xcc;" 
d="M0 432h144v-288h-144v-144h432v144h-144v288h144v144h-144v72h-72v72h-72v-72h72v-72h-216v-144z" />
    <glyph glyph-name="Iacute" unicode="&#xcd;" 
d="M0 432h144v-288h-144v-144h432v144h-144v288h144v144h-216v72h-72v-72h-144v-144zM216 648h72v72h-72v-72z" />
    <glyph glyph-name="Icircumflex" unicode="&#xce;" 
d="M288 576h-144v72h-72v-72h-72v-144h144v-288h-144v-144h432v144h-144v288h144v144h-72v72h-72v72h-144v-72h144v-72z" />
    <glyph glyph-name="Idieresis" unicode="&#xcf;" 
d="M0 432h144v-288h-144v-144h432v144h-144v288h144v144h-432v-144zM288 648h72v72h-72v-72zM72 648h72v72h-72v-72z" />
    <glyph glyph-name="Eth" unicode="&#xd0;" horiz-adv-x="576" 
d="M0 216h72v-216h360v72h72v432h-72v72h-360v-216h-72v-144zM216 432h144v-288h-144v72h72v144h-72v72z" />
    <glyph glyph-name="Ntilde" unicode="&#xd1;" 
d="M216 216h72v-216h144v576h-72v144h-72v-72h-72v72h-144v-144h-72v-576h144v288h72v-72zM144 648h72v-72h72v-144h-72v72h-72v144z" />
    <glyph glyph-name="Ograve" unicode="&#xd2;" 
d="M216 576h-144v-72h-72v-432h72v-72h288v72h72v432h-72v72h-72v72h-72v72h-72v-72h72v-72zM144 432h144v-288h-144v288z" />
    <glyph glyph-name="Oacute" unicode="&#xd3;" 
d="M0 72h72v-72h288v72h72v432h-72v72h-144v72h-72v-72h-72v-72h-72v-432zM144 432h144v-288h-144v288zM216 648h72v72h-72v-72z" />
    <glyph glyph-name="Ocircumflex" unicode="&#xd4;" 
d="M0 72h72v-72h288v72h72v432h-72v144h-72v72h-144v-72h144v-72h-144v72h-72v-144h-72v-432zM144 432h144v-288h-144v288z" />
    <glyph glyph-name="Otilde" unicode="&#xd5;" 
d="M0 72h72v-72h288v72h72v432h-72v216h-72v-72h-72v72h-144v-216h-72v-432zM144 432h144v-288h-144v288zM144 648h72v-72h-72v72z" />
    <glyph glyph-name="Odieresis" unicode="&#xd6;" 
d="M0 72h72v-72h288v72h72v432h-72v72h-288v-72h-72v-432zM144 432h144v-288h-144v288zM72 648h72v72h-72v-72zM288 648h72v72h-72v-72z" />
    <glyph glyph-name="multiply" unicode="&#xd7;" horiz-adv-x="432" 
d="M0 360h72v-72h-72v-144h144v72h72v-72h144v144h-72v72h72v144h-144v-72h-72v72h-144v-144z" />
    <glyph glyph-name="Oslash" unicode="&#xd8;" 
d="M0 -72h72v72h288v72h72v576h-72v-72h-288v-72h-72v-576zM216 288h-72v144h144v-72h-72v-72zM216 288h72v-144h-144v72h72v72z" />
    <glyph glyph-name="Ugrave" unicode="&#xd9;" 
d="M216 576h72v-432h-144v432h-144v-504h72v-72h288v72h72v504h-144v72h-72v72h-72v-72h72v-72z" />
    <glyph glyph-name="Uacute" unicode="&#xda;" 
d="M0 72h72v-72h288v72h72v504h-144v-432h-144v432h-144v-504zM216 648h72v72h-72v-72zM144 576h72v72h-72v-72z" />
    <glyph glyph-name="Ucircumflex" unicode="&#xdb;" 
d="M288 648v-504h-144v504h-72v-72h-72v-504h72v-72h288v72h72v504h-72v72h-72v72h-144v-72h144z" />
    <glyph glyph-name="Udieresis" unicode="&#xdc;" 
d="M0 72h72v-72h288v72h72v504h-144v-432h-144v432h-144v-504zM288 648h72v72h-72v-72zM72 648h72v72h-72v-72z" />
    <glyph glyph-name="Yacute" unicode="&#xdd;" 
d="M0 288h72v-72h72v-216h144v216h72v72h72v288h-144v-216h-144v216h-144v-288zM216 648h72v72h-72v-72zM144 576h72v72h-72v-72z" />
    <glyph glyph-name="Thorn" unicode="&#xde;" 
d="M0 0h144v72h216v72h72v288h-72v72h-216v72h-144v-576zM144 360h144v-144h-144v144z" />
    <glyph glyph-name="germandbls" unicode="&#xdf;" 
d="M144 432h144v-72h-72v-144h72v-72h-72v-144h144v72h72v144h-72v144h72v144h-72v72h-360v-576h144v432z" />
    <glyph glyph-name="agrave" unicode="&#xe0;" 
d="M216 576h-144v-72h-72v-504h144v216h144v-216h144v504h-72v72h-72v72h-72v72h-72v-72h72v-72zM144 360v72h144v-72h-144z" />
    <glyph glyph-name="aacute" unicode="&#xe1;" 
d="M144 216h144v-216h144v504h-72v72h-144v72h-72v-72h-72v-72h-72v-504h144v216zM144 360v72h144v-72h-144zM216 648h72v72h-72v-72z" />
    <glyph glyph-name="acircumflex" unicode="&#xe2;" 
d="M288 576h-144v72h-72v-144h-72v-504h144v216h144v-216h144v504h-72v144h-72v72h-144v-72h144v-72zM144 360v72h144v-72h-144z" />
    <glyph glyph-name="atilde" unicode="&#xe3;" 
d="M144 216h144v-216h144v504h-72v216h-72v-72h-72v72h-144v-216h-72v-504h144v216zM144 360v72h144v-72h-144zM144 648h72v-72h-72v72z" />
    <glyph glyph-name="adieresis" unicode="&#xe4;" 
d="M144 216h144v-216h144v504h-72v72h-288v-72h-72v-504h144v216zM144 360v72h144v-72h-144zM72 648h72v72h-72v-72zM288 648h72v72h-72v-72z" />
    <glyph glyph-name="aring" unicode="&#xe5;" 
d="M72 720v-216h-72v-504h144v216h144v-216h144v504h-72v216h-288zM288 576h-144v72h144v-72zM144 360v72h144v-72h-144z" />
    <glyph glyph-name="ae" unicode="&#xe6;" horiz-adv-x="792" 
d="M288 72h72v-72h360v144h-288v72h144v144h-144v72h288v144h-648v-72h-72v-504h144v216h144v-144zM144 432h144v-72h-144v72z" />
    <glyph glyph-name="ccedilla" unicode="&#xe7;" 
d="M72 0h144v-72h-72v-72h144v144h72v72h72v144h-144v-72h-144v288h144v-72h144v144h-72v72h-288v-72h-72v-432h72v-72z" />
    <glyph glyph-name="egrave" unicode="&#xe8;" 
d="M72 0h360v144h-288v72h144v144h-144v72h288v144h-144v72h-72v72h-72v-72h72v-72h-144v-72h-72v-432h72v-72z" />
    <glyph glyph-name="eacute" unicode="&#xe9;" 
d="M72 0h360v144h-288v72h144v144h-144v72h288v144h-216v72h-72v-72h-72v-72h-72v-432h72v-72zM216 648h72v72h-72v-72z" />
    <glyph glyph-name="ecircumflex" unicode="&#xea;" 
d="M288 576h-144v72h-72v-144h-72v-432h72v-72h360v144h-288v72h144v144h-144v72h288v144h-72v72h-72v72h-144v-72h144v-72z" />
    <glyph glyph-name="edieresis" unicode="&#xeb;" 
d="M72 0h360v144h-288v72h144v144h-144v72h288v144h-360v-72h-72v-432h72v-72zM288 648h72v72h-72v-72zM72 648h72v72h-72v-72z" />
    <glyph glyph-name="igrave" unicode="&#xec;" horiz-adv-x="216" 
d="M0 648h72v-72h-72v-576h144v648h-72v72h-72v-72z" />
    <glyph glyph-name="iacute" unicode="&#xed;" horiz-adv-x="216" 
d="M0 0h144v576h-72v72h-72v-648zM72 648h72v72h-72v-72z" />
    <glyph glyph-name="icircumflex" unicode="&#xee;" horiz-adv-x="216" 
d="M-72 576h72v-576h144v576h-144v72h-72v-72zM144 576h72v72h-72v72h-144v-72h144v-72z" />
    <glyph glyph-name="idieresis" unicode="&#xef;" horiz-adv-x="216" 
d="M0 0h144v576h-144v-576zM-72 648h72v72h-72v-72zM144 648h72v72h-72v-72z" />
    <glyph glyph-name="eth" unicode="&#xf0;" 
d="M144 504h72v-72h72v-72h-216v-72h-72v-216h72v-72h360v504h-72v72h-72v72h-144v-144zM288 144h-144v72h144v-72zM288 648h72v72h-72v-72zM72 432h72v72h-72v-72z" />
    <glyph glyph-name="ntilde" unicode="&#xf1;" 
d="M288 0h144v504h-72v216h-72v-72h-72v72h-144v-216h-72v-504h144v432h144v-432zM144 648h72v-72h-72v72z" />
    <glyph glyph-name="ograve" unicode="&#xf2;" 
d="M216 576h-144v-72h-72v-432h72v-72h288v72h72v432h-72v72h-72v72h-72v72h-72v-72h72v-72zM144 432h144v-288h-144v288z" />
    <glyph glyph-name="oacute" unicode="&#xf3;" 
d="M0 72h72v-72h288v72h72v432h-72v72h-144v72h-72v-72h-72v-72h-72v-432zM144 432h144v-288h-144v288zM216 648h72v72h-72v-72z" />
    <glyph glyph-name="ocircumflex" unicode="&#xf4;" 
d="M0 72h72v-72h288v72h72v432h-72v144h-72v72h-144v-72h144v-72h-144v72h-72v-144h-72v-432zM144 432h144v-288h-144v288z" />
    <glyph glyph-name="otilde" unicode="&#xf5;" 
d="M0 72h72v-72h288v72h72v432h-72v216h-72v-72h-72v72h-144v-216h-72v-432zM144 432h144v-288h-144v288zM144 648h72v-72h-72v72z" />
    <glyph glyph-name="odieresis" unicode="&#xf6;" 
d="M0 72h72v-72h288v72h72v432h-72v72h-288v-72h-72v-432zM144 432h144v-288h-144v288zM72 648h72v72h-72v-72zM288 648h72v72h-72v-72z" />
    <glyph glyph-name="divide" unicode="&#xf7;" 
d="M0 216h432v144h-432v-144zM144 0h144v144h-144v-144zM144 432h144v144h-144v-144z" />
    <glyph glyph-name="oslash" unicode="&#xf8;" 
d="M0 -72h72v72h288v72h72v576h-72v-72h-288v-72h-72v-576zM216 288h72v-144h-144v72h72v72zM216 288h-72v144h144v-72h-72v-72z" />
    <glyph glyph-name="ugrave" unicode="&#xf9;" 
d="M216 576h72v-432h-144v432h-144v-504h72v-72h288v72h72v504h-144v72h-72v72h-72v-72h72v-72z" />
    <glyph glyph-name="uacute" unicode="&#xfa;" 
d="M0 72h72v-72h288v72h72v504h-144v-432h-144v432h-144v-504zM216 648h72v72h-72v-72zM144 576h72v72h-72v-72z" />
    <glyph glyph-name="ucircumflex" unicode="&#xfb;" 
d="M288 648v-504h-144v504h-72v-72h-72v-504h72v-72h288v72h72v504h-72v72h-72v72h-144v-72h144z" />
    <glyph glyph-name="udieresis" unicode="&#xfc;" 
d="M0 72h72v-72h288v72h72v504h-144v-432h-144v432h-144v-504zM288 648h72v72h-72v-72zM72 648h72v72h-72v-72z" />
    <glyph glyph-name="yacute" unicode="&#xfd;" 
d="M0 288h72v-72h72v-216h144v216h72v72h72v288h-144v-216h-144v216h-144v-288zM216 648h72v72h-72v-72zM144 576h72v72h-72v-72z" />
    <glyph glyph-name="thorn" unicode="&#xfe;" 
d="M0 -72h144v144h216v72h72v288h-72v72h-216v144h-144v-720zM144 360h144v-144h-144v144z" />
    <glyph glyph-name="ydieresis" unicode="&#xff;" 
d="M0 288h72v-72h72v-216h144v216h72v72h72v288h-144v-216h-144v216h-144v-288zM72 648h72v72h-72v-72zM288 648h72v72h-72v-72z" />
  </font>
</defs>
</svg>
